GloDLS.to - Download Movies, TV, Games and Other Torrents Free RSS 2.0enGloDLS.to - Download Movies, TV, Games and Other Torrents FreeGloDLS.to - Download Movies, TV, Games and Other Torrents Free RSS Feedhttp://glodls.toCopyright GloDLS.to - Download Movies, TV, Games and Other Torrents FreeWed, 18 Jul 2018 19:24:47 +0100 NetVideoGirls.18.07.17.Lillian.XXX.1080p.MP4-KTR[N1C] http://glodls.to/torrent.php?id=3532987 http://glodls.to/torrent.php?id=3532987 Wed, 18 Jul 2018 18:21:11 +0100 Adult XXX NetVideoGirls.18.07.17.Lillian.XXX.1080p.MP4-KTR


[Format]: MPEG-4
[Duration]: 55mn 31s
[Resolution]: 1 920 x 1 080 pixels
[Display aspect ratio]: 16:9
[Frame rate mode]: Constant
[Frame rate]: 29.970 fps


[color=green][b]#N1C -> To avoid fakes, ALWAYS check that the torrent was added by NO1CARES[/b][/color]






[b]Screens...[/b]
[url]http://HotImage.uk/img-5b4f84d3b7593.html[/url]
[url]http://HotImage.uk/img-5b4f84d3cefa7.html[/url]
[url]http://HotImage.uk/img-5b4f84d3ddbdd.html[/url]
[url]http://HotImage.uk/img-5b4f84d3ea33d.html[/url] ]]>
DigitalPlayground.The.Next.Morning.XXX.720p.MP4-KTR[N1C] http://glodls.to/torrent.php?id=3532982 http://glodls.to/torrent.php?id=3532982 Wed, 18 Jul 2018 18:17:11 +0100 Adult XXX DigitalPlayground.The.Next.Morning.XXX.720p.MP4-KTR


[Format]: MPEG-4
[Duration]: 1h 45mn
[Resolution]: 1 280 x 720 pixels
[Display aspect ratio]: 16:9
[Frame rate mode]: Constant
[Frame rate]: 23.976 fps


[color=green][b]#N1C -> To avoid fakes, ALWAYS check that the torrent was added by NO1CARES[/b][/color]






[b]Screens...[/b]
[url]http://HotImage.uk/img-5b4f83e4037f5.html[/url]
[url]http://HotImage.uk/img-5b4f83e40fc53.html[/url]
[url]http://HotImage.uk/img-5b4f83e419389.html[/url]
[url]http://HotImage.uk/img-5b4f83e4215de.html[/url] ]]>
Naughty nurses in the city hospital http://glodls.to/torrent.php?id=3532981 http://glodls.to/torrent.php?id=3532981 Wed, 18 Jul 2018 18:12:49 +0100 Adult XXX [center]
[img]https://di.phncdn.com/videos/201407/20/29685581/original/(m=ecuKGgaaaa)(mh=ztyQkq9AQjrfomSU)1.jpg[/img]


[color=green]it's verry nice ,
go to Screen Shot and Thumbnails:-.........

[b]screens:[/b][/color]
[url=http://www.iceimg.net/site/v/6845375#3132&6845375]http://www.iceimg.net/site/v/6845375#3132&6845375[/url]
[url=http://www.iceimg.net/site/v/6845377#3132&6845377]http://www.iceimg.net/site/v/6845377#3132&6845377[/url]
[url=http://www.iceimg.net/site/v/6845379#3132&6845379]http://www.iceimg.net/site/v/6845379#3132&6845379[/url]
[url=http://www.iceimg.net/site/v/6845381#3132&6845381]http://www.iceimg.net/site/v/6845381#3132&6845381[/url]
[url=http://www.iceimg.net/site/v/6845382#3132&6845382]http://www.iceimg.net/site/v/6845382#3132&6845382[/url][/center]
]]>
Mother takes Daughter for Massage but she get s molested http://glodls.to/torrent.php?id=3532977 http://glodls.to/torrent.php?id=3532977 Wed, 18 Jul 2018 18:07:26 +0100 Adult XXX [center]
[img]http://img-hw.xvideos-cdn.com/videos/thumbs169ll/11/5f/16/115f161fe3dd33714ad09ffbe10412ed/115f161fe3dd33714ad09ffbe10412ed.11.jpg[/img]


[color=green]it's verry nice ,
go to Screen Shot and Thumbnails:-.........

[b]screens:[/b][/color]
[url=http://www.iceimg.net/site/v/6845341#3132&6845341]http://www.iceimg.net/site/v/6845341#3132&6845341[/url]
[url=http://www.iceimg.net/site/v/6845342#3132&6845342]http://www.iceimg.net/site/v/6845342#3132&6845342[/url]
[url=http://www.iceimg.net/site/v/6845344#3132&6845344]http://www.iceimg.net/site/v/6845344#3132&6845344[/url]
[url=http://www.iceimg.net/site/v/6845346#3132&6845346]http://www.iceimg.net/site/v/6845346#3132&6845346[/url]
[url=http://www.iceimg.net/site/v/6845348#3132&6845348]http://www.iceimg.net/site/v/6845348#3132&6845348[/url][/center]
]]>
CastingCouch-HD.18.07.13.Sasha.XXX.1080p.MP4-KTR[N1C] http://glodls.to/torrent.php?id=3532974 http://glodls.to/torrent.php?id=3532974 Wed, 18 Jul 2018 18:05:12 +0100 Adult XXX CastingCouch-HD.18.07.13.Sasha.XXX.1080p.MP4-KTR


[Format]: MPEG-4
[Duration]: 45mn 13s
[Resolution]: 1 920 x 1 080 pixels
[Display aspect ratio]: 16:9
[Frame rate mode]: Constant
[Frame rate]: 29.970 fps


[color=green][b]#N1C -> To avoid fakes, ALWAYS check that the torrent was added by NO1CARES[/b][/color]






[b]Screens...[/b]
[url]http://HotImage.uk/img-5b4f8111d0394.html[/url]
[url]http://HotImage.uk/img-5b4f8112295c8.html[/url]
[url]http://HotImage.uk/img-5b4f811236f66.html[/url]
[url]http://HotImage.uk/img-5b4f8112424d2.html[/url] ]]>
Survivors Guide To Prison 2018 DVDRip x264-RedBlade http://glodls.to/torrent.php?id=3532973 http://glodls.to/torrent.php?id=3532973 Wed, 18 Jul 2018 18:03:29 +0100 Movies COVER:
https://tinizo.com/upload/small/2018/07/18/5b4f7f677ae0f.jpg

RELEASED:
23 February 2018

IMDB: https://www.imdb.com/title/tt4323370/



Size: 723568095 bytes (690.05 MiB), duration: 01:42:45, avg.bitrate: 939 kb/s
Audio: aac, 48000 Hz, stereo (eng)
Video: h264, yuv420p, 720x406, 23.98 fps(r) (eng)




SCREENS:
[url=https://tinizo.com/img-5b4f7f67a3472.html[/url]

[url]https://tinizo.com/img-5b4f7f67a7f85.html[/url]

[url]https://tinizo.com/img-5b4f7f67aaa9b.html[/url]


DOWNLOAD AND ENJOY.

KEEP IT FOR LONG SEEDING TO HELP OTHERS


Thanks to : RedBlade
Movie Share ]]>
Milf Wife get s groped and fucked on the way to work on Train http://glodls.to/torrent.php?id=3532972 http://glodls.to/torrent.php?id=3532972 Wed, 18 Jul 2018 18:02:44 +0100 Adult XXX [center]
[img]http://cdn.iporntv.net/videos/thumbsl/36/ed/7e/36ed7e466f24588e2ef98f3aad181e13/36ed7e466f24588e2ef98f3aad181e13.2.jpg[/img]


[color=green]it's verry nice ,
go to Screen Shot and Thumbnails:-.........

[b]screens:[/b][/color]
[url=http://www.iceimg.net/site/v/6845331#3132&6845331]http://www.iceimg.net/site/v/6845331#3132&6845331[/url]
[url=http://www.iceimg.net/site/v/6845333#3132&6845333]http://www.iceimg.net/site/v/6845333#3132&6845333[/url]
[url=http://www.iceimg.net/site/v/6845334#3132&6845334]http://www.iceimg.net/site/v/6845334#3132&6845334[/url]
[url=http://www.iceimg.net/site/v/6845336#3132&6845336]http://www.iceimg.net/site/v/6845336#3132&6845336[/url]
[url=http://www.iceimg.net/site/v/6845337#3132&6845337]http://www.iceimg.net/site/v/6845337#3132&6845337[/url][/center]
]]>
[ArenaBG com]-Orgasmus 2 (2002) DVDRip http://glodls.to/torrent.php?id=3532920 http://glodls.to/torrent.php?id=3532920 Wed, 18 Jul 2018 17:52:14 +0100 Adult XXX male to female massage health fun mumbai http://glodls.to/torrent.php?id=3532919 http://glodls.to/torrent.php?id=3532919 Wed, 18 Jul 2018 17:49:34 +0100 Adult XXX [center]
[img]https://i.pinimg.com/236x/f3/8c/96/f38c96f5232336979184287914ec0db2.jpg[/img]


[color=green]it's verry nice ,
go to Screen Shot and Thumbnails:-.........

[b]screens:[/b][/color]
[url=http://www.iceimg.net/site/v/6845267#3132&6845267]http://www.iceimg.net/site/v/6845267#3132&6845267[/url]
[url=http://www.iceimg.net/site/v/6845268#3132&6845268]http://www.iceimg.net/site/v/6845268#3132&6845268[/url]
[url=http://www.iceimg.net/site/v/6845269#3132&6845269]http://www.iceimg.net/site/v/6845269#3132&6845269[/url]
[url=http://www.iceimg.net/site/v/6845270#3132&6845270]http://www.iceimg.net/site/v/6845270#3132&6845270[/url]
[url=http://www.iceimg.net/site/v/6845271#3132&6845271]http://www.iceimg.net/site/v/6845271#3132&6845271[/url][/center]
]]>
211 2018 1080p BluRay x264-CiNEFiLE http://glodls.to/torrent.php?id=3532918 http://glodls.to/torrent.php?id=3532918 Wed, 18 Jul 2018 17:48:46 +0100 Movies COVER:
https://tinizo.com/upload/small/2018/07/18/5b4f7c98c3d74.jpg

ACTORS:
Nicolas Cage, Sophie Skelton, Michael Rainey Jr., Dwayne Cameron, Weston Cage, Cory Hardrict, Ori Pfeffer, Mark Basnight, Amanda Cerny,

RELEASED:
8 June 2018

IMDB: https://www.imdb.com/title/tt4976192/



Size: 7040837163 bytes (6.56 GiB), duration: 01:27:04, avg.bitrate: 10782 kb/s
Audio: dts, 48000 Hz, 5:1 (eng)
Video: h264, yuv420p, 1920x1040, 23.98 fps(r) (eng)




SCREENS:
[url=https://tinizo.com/img-5b4f7c990eb27.html[/url]

[url]https://tinizo.com/img-5b4f7c991ee81.html[/url]

[url]https://tinizo.com/img-5b4f7c992f4db.html[/url]


DOWNLOAD AND ENJOY.

KEEP IT FOR LONG SEEDING TO HELP OTHERS


Thanks to : CiNEFiLE
Movie Share ]]>
Sexy women of romance movies 1920x1080 screensavers http://glodls.to/torrent.php?id=3532917 http://glodls.to/torrent.php?id=3532917 Wed, 18 Jul 2018 17:47:44 +0100 Pictures lucy li is a sensational masseuse as you see http://glodls.to/torrent.php?id=3532916 http://glodls.to/torrent.php?id=3532916 Wed, 18 Jul 2018 17:43:36 +0100 Adult XXX [center]
[img]https://cdne-pics.youjizz.com/8/1/6/81671ae50234ca679f1faf5afcdd27e01502255148-852-480-299-h264.mp4-1.jpg[/img]


[color=green]it's verry nice ,
go to Screen Shot and Thumbnails:-.........

[b]screens:[/b][/color]
[url=http://www.iceimg.net/site/v/6845203#3132&6845203]http://www.iceimg.net/site/v/6845203#3132&6845203[/url]
[url=http://www.iceimg.net/site/v/6845205#3132&6845205]http://www.iceimg.net/site/v/6845205#3132&6845205[/url]
[url=http://www.iceimg.net/site/v/6845207#3132&6845207]http://www.iceimg.net/site/v/6845207#3132&6845207[/url]
[url=http://www.iceimg.net/site/v/6845209#3132&6845209]http://www.iceimg.net/site/v/6845209#3132&6845209[/url]
[url=http://www.iceimg.net/site/v/6845211#3132&6845211]http://www.iceimg.net/site/v/6845211#3132&6845211[/url][/center]
]]>
[ArenaBG com]-My Vixen Hotwife (2017) DVDRip http://glodls.to/torrent.php?id=3532915 http://glodls.to/torrent.php?id=3532915 Wed, 18 Jul 2018 17:42:39 +0100 Adult XXX lolli is a hot brunette enjoying a massage http://glodls.to/torrent.php?id=3532914 http://glodls.to/torrent.php?id=3532914 Wed, 18 Jul 2018 17:39:44 +0100 Adult XXX [center]
[img]https://videoassets.porndig.com/thumbs/2013/08/34983/320x180/7.jpg[/img]


[color=green]it's verry nice ,
go to Screen Shot and Thumbnails:-.........

[b]screens:[/b][/color]
[url=http://www.iceimg.net/site/v/6845127#3132&6845127]http://www.iceimg.net/site/v/6845127#3132&6845127[/url]
[url=http://www.iceimg.net/site/v/6845128#3132&6845128]http://www.iceimg.net/site/v/6845128#3132&6845128[/url]
[url=http://www.iceimg.net/site/v/6845129#3132&6845129]http://www.iceimg.net/site/v/6845129#3132&6845129[/url]
[url=http://www.iceimg.net/site/v/6845130#3132&6845130]http://www.iceimg.net/site/v/6845130#3132&6845130[/url]
[url=http://www.iceimg.net/site/v/6845131#3132&6845131]http://www.iceimg.net/site/v/6845131#3132&6845131[/url][/center]
]]>
[Vixen] Kenna James, Honey Gold - My Hollywood Threesome (18 07 2018) rq mp4 http://glodls.to/torrent.php?id=3532913 http://glodls.to/torrent.php?id=3532913 Wed, 18 Jul 2018 17:38:52 +0100 Adult XXX Audio: aac, 48000 Hz, 2 channels, s16, 63 kb/s (und)
Video: h264, yuv420p, 854x480, 1023 kb/s, 23,98 fps(r) (und)

https://imgdrive.net/img-5b4f794c4065f.html ]]>
China.Salesman.2017.BRRip.XviD.AC3-iFT http://glodls.to/torrent.php?id=3532912 http://glodls.to/torrent.php?id=3532912 Wed, 18 Jul 2018 17:35:51 +0100 Movies [color=red][b]
China.Salesman.2017.BRRip.XviD.AC3-iFT

[/b][/color]


IMDb: http://www.imdb.com/title/tt6015706/





[url=https://boltimg.com/image/t52z][img]https://boltimg.com/images/t52z.png[/img][/url]



[color=green][b]
General

(Duration): 1 h 50 min
(FileSize): 1.93 GiB



Audio

(Format): AC-3 - Audio Coding 3
(Codec): AC3



Video

(Format): MPEG-4 Visual -
(Media): video/MP4V-ES
(Format):
(Resolution): 720x320 px
(AspectRatio): 2.25:1
(FrameRate): 23.976 (24000/1001) FPS




[/b][/color]


[url=https://boltimg.com/image/tzTE][img]https://boltimg.com/images/tzTE.png[/img][/url]



[color=purple][b](Click to enlarge)[/b][/color]

[url=https://boltimg.com/image/GrISp][img]https://boltimg.com/images/GrISp.th.jpg[/img][/url] [url=https://boltimg.com/image/GrY0C][img]https://boltimg.com/images/GrY0C.th.jpg[/img][/url] [url=https://boltimg.com/image/Gr2rG][img]https://boltimg.com/images/Gr2rG.th.jpg[/img][/url] [url=https://boltimg.com/image/GrAwF][img]https://boltimg.com/images/GrAwF.th.jpg[/img][/url] [url=https://boltimg.com/image/GraJb][img]https://boltimg.com/images/GraJb.th.jpg[/img][/url] [url=https://boltimg.com/image/GrbvN][img]https://boltimg.com/images/GrbvN.th.jpg[/img][/url]

[/center]
]]>
Undeserved.2016.1080p.AMZN.WEB-DL.DDP2.0.H.264-NTb[EtHD] http://glodls.to/torrent.php?id=3532911 http://glodls.to/torrent.php?id=3532911 Wed, 18 Jul 2018 17:30:46 +0100 Movies EtHD - EtHD - Et High-Definition Movies

-----------------------------------------------------
[url]https://ettv.online/[/url]

Undeserved.2016.1080p.AMZN.WEB-DL.DDP2.0.H.264-NTb

http://www.imdb.com/title/tt5739900/

[Video Bitrate]:.............: 6575kb/s
[Duration]:.............: 1 h 47 min
[Video Codec]:.............: AVC
[Resolution]:.............: 1920x1080 px
[Aspect Ratio]:.............: 16:9
[Audio Codec]:.............: E-AC-3
[Audio Bitrate]:.............: 224kb/s
[Audio Channels]:.............: 2.0ch
[Audio Language]:.............: English

Genre .......................:

[color=green][b]#EtHD -> To avoid fakes, ALWAYS check that the torrent was added by EtHD [/b][/color]


[color=green][b]To keep us going Support us by donating Bitcoin: 3PaWcF82GoygLH9z4d7AocH6zcF6m15Wdv[/b][/color]

[b]Screens...[/b]

[url]https://extraimage.net/image/sK3K[/url]
[url]https://extraimage.net/image/sK3Z[/url]
[url]https://extraimage.net/image/sK3e[/url]
[url]https://extraimage.net/image/sK34[/url]
[url]https://extraimage.net/image/sK3B[/url]
[url]https://extraimage.net/image/sK3G[/url]
]]>
Scarlett.2016.1080p.AMZN.WEB-DL.DDP2.0.H.264-NTb[EtHD] http://glodls.to/torrent.php?id=3532909 http://glodls.to/torrent.php?id=3532909 Wed, 18 Jul 2018 17:27:05 +0100 Movies EtHD - EtHD - Et High-Definition Movies

-----------------------------------------------------
[url]https://ettv.online/[/url]

Scarlett.2016.1080p.AMZN.WEB-DL.DDP2.0.H.264-NTb

http://www.imdb.com/title/tt3626504/

[Video Bitrate]:.............: 3572kb/s
[Duration]:.............: 1 h 32 min
[Video Codec]:.............: AVC
[Resolution]:.............: 1920x816 px
[Aspect Ratio]:.............: 2.35:1
[Audio Codec]:.............: E-AC-3
[Audio Bitrate]:.............: 224kb/s
[Audio Channels]:.............: 2.0ch
[Audio Language]:.............: English

Genre .......................:

[color=green][b]#EtHD -> To avoid fakes, ALWAYS check that the torrent was added by EtHD [/b][/color]


[color=green][b]To keep us going Support us by donating Bitcoin: 3PaWcF82GoygLH9z4d7AocH6zcF6m15Wdv[/b][/color]

[b]Screens...[/b]

[url]https://extraimage.net/image/sK3E[/url]
[url]https://extraimage.net/image/sK3O[/url]
[url]https://extraimage.net/image/sK3S[/url]
[url]https://extraimage.net/image/sK3q[/url]
[url]https://extraimage.net/image/sK3y[/url]
[url]https://extraimage.net/image/sK3i[/url]
]]>
Two.Steps.From.Hope.2017.1080p.AMZN.WEB-DL.DDP2.0.H.264-NTb[EtHD] http://glodls.to/torrent.php?id=3532908 http://glodls.to/torrent.php?id=3532908 Wed, 18 Jul 2018 17:25:57 +0100 Movies EtHD - EtHD - Et High-Definition Movies

-----------------------------------------------------
[url]https://ettv.online/[/url]

Two.Steps.From.Hope.2017.1080p.AMZN.WEB-DL.DDP2.0.H.264-NTb

http://www.imdb.com/title/tt5798330/

[Video Bitrate]:.............: 4669kb/s
[Duration]:.............: 1 h 23 min
[Video Codec]:.............: AVC
[Resolution]:.............: 1920x1080 px
[Aspect Ratio]:.............: 16:9
[Audio Codec]:.............: E-AC-3
[Audio Bitrate]:.............: 224kb/s
[Audio Channels]:.............: 2.0ch
[Audio Language]:.............: English

Genre .......................:

[color=green][b]#EtHD -> To avoid fakes, ALWAYS check that the torrent was added by EtHD [/b][/color]


[color=green][b]To keep us going Support us by donating Bitcoin: 3PaWcF82GoygLH9z4d7AocH6zcF6m15Wdv[/b][/color]

[b]Screens...[/b]

[url]https://extraimage.net/image/sK3w[/url]
[url]https://extraimage.net/image/sK32[/url]
[url]https://extraimage.net/image/sK3N[/url]
[url]https://extraimage.net/image/sK3T[/url]
[url]https://extraimage.net/image/sK3j[/url]
[url]https://extraimage.net/image/sK31[/url]
]]>
Future World 2018 MULTi 1080p BluRay x264-LOST http://glodls.to/torrent.php?id=3532907 http://glodls.to/torrent.php?id=3532907 Wed, 18 Jul 2018 17:24:04 +0100 Movies COVER:
https://tinizo.com/upload/small/2018/07/18/5b4f773df11a6.jpg

ACTORS:
James Franco, Suki Waterhouse, Jeffrey Wahlberg, Margarita Levieva, Snoop Dogg, Twin Shadow, Method Man, Lucy Liu, Milla Jovovich,

RELEASED:
25 May 2018

IMDB: https://www.imdb.com/title/tt5737536/



Size: 7037366303 bytes (6.55 GiB), duration: 01:28:27, avg.bitrate: 10608 kb/s
Audio: ac3, 48000 Hz, 5:1 (fre)
Audio: ac3, 48000 Hz, 5:1 (eng)
Video: h264, yuv420p, 1920x808, 23.98 fps(r) (eng)
Subtitles: fre fre fre




SCREENS:
[url=https://tinizo.com/img-5b4f773e32bc1.html[/url]

[url]https://tinizo.com/img-5b4f773e40631.html[/url]

[url]https://tinizo.com/img-5b4f773e4cb69.html[/url]


DOWNLOAD AND ENJOY.

KEEP IT FOR LONG SEEDING TO HELP OTHERS


Thanks to : LOST
Movie Share ]]>
Stanley Outdoor Projects - A Homeowner s Guide By David Schiff http://glodls.to/torrent.php?id=3532906 http://glodls.to/torrent.php?id=3532906 Wed, 18 Jul 2018 17:18:28 +0100 Books
[b]English | 1631866745 | 258 pages | PDF | 41.4 MB[/b]

[b][url=https://hdwallpaperup.in/3945.html]PREVIEW 1[/url][/b]

[b][url=https://hdwallpaperup.in/3946.html]PREVIEW 2[/url][/b]

[b][url=https://hdwallpaperup.in/3947.html]PREVIEW 3[/url][/b]

[b][url=https://hdwallpaperup.in/3948.html]PREVIEW 4[/url][/b][/size] ]]>
Flight 2012 720 BluRay x264-SPARKS http://glodls.to/torrent.php?id=3532905 http://glodls.to/torrent.php?id=3532905 Wed, 18 Jul 2018 17:16:00 +0100 Movies COVER:
https://tinizo.com/upload/small/2018/07/18/5b4f754b11c0e.jpg

ACTORS:
Nadine Velazquez, Denzel Washington, Carter Cabassa, Adam C. Edwards, Tamara Tunie, Brian Geraghty, Kelly Reilly, Conor O'Neill, Charlie E. Schmidt,

RELEASED:
2 November 2012

IMDB: https://www.imdb.com/title/tt1907668/



Size: 5865262373 bytes (5.46 GiB), duration: 02:18:35, avg.bitrate: 5643 kb/s
Audio: dts, 48000 Hz, 5:1 (eng)
Video: h264, yuv420p, 1280x536, 23.98 fps(r) (eng)
Subtitles: eng eng




SCREENS:
[url=https://tinizo.com/img-5b4f754b3eeca.html[/url]

[url]https://tinizo.com/img-5b4f754b46ffb.html[/url]

[url]https://tinizo.com/img-5b4f754b4cca7.html[/url]


DOWNLOAD AND ENJOY.

KEEP IT FOR LONG SEEDING TO HELP OTHERS


Thanks to : SPARKS
Movie Share ]]>
Grow 15 Herbs for the Kitchen - Storey s Country Wisdom Bulletin A-61 http://glodls.to/torrent.php?id=3532904 http://glodls.to/torrent.php?id=3532904 Wed, 18 Jul 2018 17:13:02 +0100 Books
[b]English | 0882662759 | 62 pages | EPUB | 3.33 MB[/b]

[b][url=https://hdwallpaperup.in/3941.html]PREVIEW 1[/url][/b]

[b][url=https://hdwallpaperup.in/3942.html]PREVIEW 2[/url][/b]

[b][url=https://hdwallpaperup.in/3943.html]PREVIEW 3[/url][/b]

[b][url=https://hdwallpaperup.in/3944.html]PREVIEW 4[/url][/b][/size] ]]>
lola is a very stylish and expensive whore http://glodls.to/torrent.php?id=3532903 http://glodls.to/torrent.php?id=3532903 Wed, 18 Jul 2018 17:10:32 +0100 Adult XXX [center]
[img]https://videoassets.porndig.com/thumbs/2014/11/70725/320x180/4.jpg[/img]


[color=green]it's verry nice ,
go to Screen Shot and Thumbnails:-.........

[b]screens:[/b][/color]
[url=http://www.iceimg.net/site/v/6845067#3132&6845067]http://www.iceimg.net/site/v/6845067#3132&6845067[/url]
[url=http://www.iceimg.net/site/v/6845068#3132&6845068]http://www.iceimg.net/site/v/6845068#3132&6845068[/url]
[url=http://www.iceimg.net/site/v/6845069#3132&6845069]http://www.iceimg.net/site/v/6845069#3132&6845069[/url]
[url=http://www.iceimg.net/site/v/6845070#3132&6845070]http://www.iceimg.net/site/v/6845070#3132&6845070[/url]
[url=http://www.iceimg.net/site/v/6845071#3132&6845071]http://www.iceimg.net/site/v/6845071#3132&6845071[/url][/center]
]]>
Godzilla City on the Edge of Battle 2018 1080p WEB-DL DD 5 1 x264 [MW] http://glodls.to/torrent.php?id=3532902 http://glodls.to/torrent.php?id=3532902 Wed, 18 Jul 2018 17:09:35 +0100 Movies [url=https://pichub.site/image/aXCxB][img]https://pichub.site/images/2018/07/18/godb01208bd62947960.md.jpg[/img][/url]
[b]
General
Format : Matroska
Format version : Version 4 / Version 2
File size : 1.69 GiB
Duration : 1 h 40 min
Overall bit rate : 2 402 kb/s

Video
ID : 1
Format : AVC
Format/Info : Advanced Video Codec
Format profile : High@L4.1
Format settings : CABAC / 4 Ref Frames
Format settings, CABAC : Yes
Format settings, RefFrames : 4 frames
Codec ID : V_MPEG4/ISO/AVC
Duration : 1 h 40 min
Bit rate : 2 000 kb/s
Width : 1 920 pixels
Height : 1 080 pixels
Display aspect ratio : 16:9
Frame rate mode : Constant
Frame rate : 24.000 FPS
Color space : YUV
Chroma subsampling : 4:2:0
Bit depth : 8 bits
Scan type : Progressive
Bits/(Pixel*Frame) : 0.040
Stream size : 1.42 GiB (84%)
Writing library : x264 core 155 r2901 7d0ff22
Default : Yes
Forced : No

Audio
ID : 3
Format : AC-3
Format/Info : Audio Coding 3
Codec ID : A_AC3
Duration : 1 h 40 min
Bit rate mode : Constant
Bit rate : 384 kb/s
Channel(s) : 6 channels
Channel positions : Front: L C R, Side: L R, LFE
Sampling rate : 48.0 kHz
Frame rate : 31.250 FPS (1536 SPF)
Bit depth : 16 bits
Compression mode : Lossy
Stream size : 277 MiB (16%)
Language : English
Service kind : Complete Main
Default : Yes
Forced : No

Text
ID : 2
Format : UTF-8
Codec ID : S_TEXT/UTF8
Codec ID/Info : UTF-8 Plain Text
Duration : 1 h 39 min
Bit rate : 70 b/s
Count of elements : 1351
Stream size : 51.8 KiB (0%)
Language : English
Default : Yes
Forced : No
[/b]

Click To Enlarge Image

[url=https://pichub.site/image/aXhTY][img]https://pichub.site/images/2018/07/18/00_01_15.md.jpg[/img][/url]
[url=https://pichub.site/image/aXtD6][img]https://pichub.site/images/2018/07/18/00_30_17.md.jpg[/img][/url]
[url=https://pichub.site/image/aXzmt][img]https://pichub.site/images/2018/07/18/00_31_19.md.jpg[/img][/url]
[url=https://pichub.site/image/aX8s4][img]https://pichub.site/images/2018/07/18/00_33_27.md.jpg[/img][/url]
[url=https://pichub.site/image/aXKzy][img]https://pichub.site/images/2018/07/18/00_56_40.md.jpg[/img][/url]
[url=https://pichub.site/image/aXBYp][img]https://pichub.site/images/2018/07/18/01_19_08.md.jpg[/img][/url]
[/center]
]]>
Encyclopedia of Molecular Biology, 4 Volume Set By Thomas E Creighton http://glodls.to/torrent.php?id=3532901 http://glodls.to/torrent.php?id=3532901 Wed, 18 Jul 2018 17:09:23 +0100 Books
[b]English | 0471153028 | 4899 pages | PDF | 59.7 MB[/b]

[b][url=https://hdwallpaperup.in/3937.html]PREVIEW 1[/url][/b]

[b][url=https://hdwallpaperup.in/3938.html]PREVIEW 2[/url][/b]

[b][url=https://hdwallpaperup.in/3939.html]PREVIEW 3[/url][/b]

[b][url=https://hdwallpaperup.in/3940.html]PREVIEW 4[/url][/b][/size] ]]>
[ArenaBG com]-Teens Go Wild (2018) WEBRip http://glodls.to/torrent.php?id=3532900 http://glodls.to/torrent.php?id=3532900 Wed, 18 Jul 2018 17:07:19 +0100 Adult XXX Four Assassins 2013 1080p BluRay x264-iFPD http://glodls.to/torrent.php?id=3532899 http://glodls.to/torrent.php?id=3532899 Wed, 18 Jul 2018 17:06:05 +0100 Movies COVER:
https://tinizo.com/upload/small/2018/07/18/5b4f7324d4e74.jpg

RELEASED:
8 January 2013

IMDB: https://www.imdb.com/title/tt1478804/



Size: 7038919173 bytes (6.56 GiB), duration: 01:26:45, avg.bitrate: 10819 kb/s
Audio: dts, 48000 Hz, 5:1 (eng)
Video: h264, yuv420p, 1920x808, 23.98 fps(r)




SCREENS:
[url=https://tinizo.com/img-5b4f732515899.html[/url]

[url]https://tinizo.com/img-5b4f732523251.html[/url]

[url]https://tinizo.com/img-5b4f73252fa03.html[/url]


DOWNLOAD AND ENJOY.

KEEP IT FOR LONG SEEDING TO HELP OTHERS


Thanks to : iFPD
Movie Share ]]>
The Bible Book - Big Ideas Simply Explained by DK http://glodls.to/torrent.php?id=3532898 http://glodls.to/torrent.php?id=3532898 Wed, 18 Jul 2018 17:05:03 +0100 Books
[b]English | 0241301904 | 840 pages | EPUB | 56.6 MB[/b]

[b][url=https://hdwallpaperup.in/3933.html]PREVIEW 1[/url][/b]

[b][url=https://hdwallpaperup.in/3934.html]PREVIEW 2[/url][/b]

[b][url=https://hdwallpaperup.in/3935.html]PREVIEW 3[/url][/b]

[b][url=https://hdwallpaperup.in/3936.html]PREVIEW 4[/url][/b]
[/size] ]]>
Black & Decker The Complete Guide to Carpentry for Homeowners By Chris Marshall http://glodls.to/torrent.php?id=3532897 http://glodls.to/torrent.php?id=3532897 Wed, 18 Jul 2018 17:01:39 +0100 Books
[b]English | B004NNUWXU | 2142 pages | EPUB | 93.2 MB[/b]

[b][url=https://hdwallpaperup.in/3929.html]PREVIEW 1[/url][/b]

[b][url=https://hdwallpaperup.in/3930.html]PREVIEW 2[/url][/b]

[b][url=https://hdwallpaperup.in/3931.html]PREVIEW 3[/url][/b]

[b][url=https://hdwallpaperup.in/3932.html]PREVIEW 4[/url][/b][/size] ]]>
Fresh Vegetable and Fruit Juices - What s Missing in Your Body by Norman W Walker http://glodls.to/torrent.php?id=3532896 http://glodls.to/torrent.php?id=3532896 Wed, 18 Jul 2018 16:59:05 +0100 Books
[b]English | 089019033X | 125 pages | PDF | 21.2 MB[/b]

[b][url=https://hdwallpaperup.in/3925.html]PREVIEW 1[/url][/b]

[b][url=https://hdwallpaperup.in/3926.html]PREVIEW 2[/url][/b]

[b][url=https://hdwallpaperup.in/3927.html]PREVIEW 3[/url][/b]

[b][url=https://hdwallpaperup.in/3928.html]PREVIEW 4[/url][/b][/size] ]]>
I Feel Pretty 2018 FRENCH 720p BluRay x264-LOST http://glodls.to/torrent.php?id=3532895 http://glodls.to/torrent.php?id=3532895 Wed, 18 Jul 2018 16:57:49 +0100 Movies COVER:
https://tinizo.com/upload/small/2018/07/18/5b4f712c9e70c.jpg

ACTORS:
Amy Schumer, Michelle Williams, Tom Hopper, Rory Scovel, Adrian Martinez, Emily Ratajkowski, Aidy Bryant, Busy Philipps, Lauren Hutton,

RELEASED:
20 April 2018

IMDB: https://www.imdb.com/title/tt6791096/



Size: 4688620821 bytes (4.37 GiB), duration: 01:49:52, avg.bitrate: 5690 kb/s
Audio: dts, 48000 Hz, 5 channels (fre)
Video: h264, yuv420p, 1280x536, 23.98 fps(r) (eng)




SCREENS:
[url=https://tinizo.com/img-5b4f712cd1737.html[/url]

[url]https://tinizo.com/img-5b4f712cd7b0f.html[/url]

[url]https://tinizo.com/img-5b4f712cddd1d.html[/url]


DOWNLOAD AND ENJOY.

KEEP IT FOR LONG SEEDING TO HELP OTHERS


Thanks to : LOST
Movie Share ]]>
Knots - An Illustrated Practical Guide to the Essential Knot Types and Their Uses http://glodls.to/torrent.php?id=3532894 http://glodls.to/torrent.php?id=3532894 Wed, 18 Jul 2018 16:56:53 +0100 Books
[b]English | 1462114008 | 160 pages | PDF | 7.91 MB[/b]

[b][url=https://hdwallpaperup.in/3921.html]PREVIEW 1[/url][/b]

[b][url=https://hdwallpaperup.in/3922.html]PREVIEW 2[/url][/b]

[b][url=https://hdwallpaperup.in/3923.html]PREVIEW 3[/url][/b]

[b][url=https://hdwallpaperup.in/3924.html]PREVIEW 4[/url][/b][/size] ]]>
Vegetable Gardening Encyclopedia by Consumer Guide http://glodls.to/torrent.php?id=3532893 http://glodls.to/torrent.php?id=3532893 Wed, 18 Jul 2018 16:53:36 +0100 Books
[b]English | 0883655942 | 261 pages | PDF | 13.5 MB[/b]

[b][url=https://hdwallpaperup.in/3917.html]PREVIEW 1[/url][/b]

[b][url=https://hdwallpaperup.in/3918.html]PREVIEW 2[/url][/b]

[b][url=https://hdwallpaperup.in/3919.html]PREVIEW 3[/url][/b]

[b][url=https://hdwallpaperup.in/3920.html]PREVIEW 4[/url][/b]
[/size] ]]>
Macworld USA - August 2018 http://glodls.to/torrent.php?id=3532892 http://glodls.to/torrent.php?id=3532892 Wed, 18 Jul 2018 16:50:59 +0100 Books
[b]English | 126 pages | PDF | 46.4 MB[/b]

[b][url=https://hdwallpaperup.in/3913.html]PREVIEW 1[/url][/b]

[b][url=https://hdwallpaperup.in/3914.html]PREVIEW 2[/url][/b]

[b][url=https://hdwallpaperup.in/3915.html]PREVIEW 3[/url][/b]

[b][url=https://hdwallpaperup.in/3916.html]PREVIEW 4[/url][/b][/size] ]]>
Prevention USA - August 2018 http://glodls.to/torrent.php?id=3532891 http://glodls.to/torrent.php?id=3532891 Wed, 18 Jul 2018 16:47:04 +0100 Books Prevention USA - August 2018

[b]English | 100 pages | PDF | 48.5 MB[/b]

[b][url=https://hdwallpaperup.in/3909.html]PREVIEW 1[/url][/b]

[b][url=https://hdwallpaperup.in/3910.html]PREVIEW 2[/url][/b]

[b][url=https://hdwallpaperup.in/3911.html]PREVIEW 3[/url][/b]

[b][url=https://hdwallpaperup.in/3912.html]PREVIEW 4[/url][/b][/size] ]]>
POVBitch 18 07 18 Adria Rossi Nothing Really Special 480p MP4-XxX http://glodls.to/torrent.php?id=3532890 http://glodls.to/torrent.php?id=3532890 Wed, 18 Jul 2018 16:46:50 +0100 Adult XXX
[b]Screens:[/b]

[url]https://22pixx.xyz/ia-i/5b4f6efa49a0e.jpeg.html[/url]

[url]https://22pixx.xyz/ia-i/5b4f6efa3e7b4.jpeg.html[/url]

[url]https://22pixx.xyz/ia-i/5b4f6efa33067.jpeg.html[/url]

[url]https://22pixx.xyz/ia-i/5b4f6ef912dba.jpeg.html[/url]

File Size : 188 MiB
File Duration : 22mn 47s
Video Metainfo : H264, yuv420p, 854x480p, 1024 Kbps
Audio Metainfo : AAC , 2 ch, Stereo , 128 Kbps ]]>
[ArenaBG com]-Dirty Little Blondes (2015) DVDRip http://glodls.to/torrent.php?id=3532889 http://glodls.to/torrent.php?id=3532889 Wed, 18 Jul 2018 16:44:59 +0100 Adult XXX Yamamay - Bikini My Summer Collection 2014 http://glodls.to/torrent.php?id=3532888 http://glodls.to/torrent.php?id=3532888 Wed, 18 Jul 2018 16:43:52 +0100 Books
[b]English | 47 pages | PDF | 6.65 MB[/b]

[b][url=https://hdwallpaperup.in/3905.html]PREVIEW 1[/url][/b]

[b][url=https://hdwallpaperup.in/3906.html]PREVIEW 2[/url][/b]

[b][url=https://hdwallpaperup.in/3907.html]PREVIEW 3[/url][/b]

[b][url=https://hdwallpaperup.in/3908.html]PREVIEW 4[/url][/b]

[img]http://katalozi.net/wp-content/uploads/2014/04/yamamay_katalog.jpg[/img][/size] ]]>
Gippi 2013 Hindi 720p HDRip x264 AAC { TaRa } mkv http://glodls.to/torrent.php?id=3532887 http://glodls.to/torrent.php?id=3532887 Wed, 18 Jul 2018 16:41:28 +0100 Movies [b][size=5][color=#ff0080]Gippi 2013 Hindi 720p HDRip x264 AAC { TaRa }.mkv[/color][/size][/b]
[url=https://extraimage.net/image/sKhi][img]https://extraimage.net/images/2018/07/18/2cb5769579798fb7c32e1a4e0816d3e9.jpg[/img][/url]
[img]https://www.jiopic.com/images/2017/12/21/4Lo6rj2.png[/img]
[size=2][color=#00b3b3][b]===================================================================
General
Complete name : Gippi 2013 Hindi 720p HDRip x264 AAC { TaRa }.mkv
Format : Matroska
Format version : Version 4 / Version 2
File size : 699 MiB
Duration : 1h 35mn
Overall bit rate : 1 025 Kbps
===================================================================
Video
ID : 1
Format : AVC
Format/Info : Advanced Video Codec
Format profile : High@L4.1
Format settings, CABAC : Yes
Format settings, ReFrames : 12 frames
Codec ID : V_MPEG4/ISO/AVC
Duration : 1h 35mn
Bit rate : 943 Kbps
Width : 1 280 pixels
Height : 544 pixels
Display aspect ratio : 2.35:1
Frame rate mode : Constant
Frame rate : 23.976 (24000/1001) fps
Color space : YUV
Chroma subsampling : 4:2:0
Bit depth : 8 bits
Scan type : Progressive
Bits/(Pixel*Frame) : 0.056
Stream size : 643 MiB (92%)
Title : .....::::: TaRa :::::.....
Language : Hindi
Default : Yes
Forced : No
===================================================================
Audio
ID : 2
Format : AAC
Format/Info : Advanced Audio Codec
Format profile : LC
Codec ID : A_AAC
Duration : 1h 35mn
Bit rate : 80.0 Kbps
Channel(s) : 2 channels
Channel positions : Front: L R
Sampling rate : 44.1 KHz
Frame rate : 43.066 fps (1024 spf)
Compression mode : Lossy
Stream size : 54.5 MiB (8%)
Title : .....::::: TaRa :::::.....
Language : Hindi
Default : Yes
Forced : No
===================================================================
[/b][/color][/size]
[img]https://www.jiopic.com/images/2017/12/21/2016-11-05_170245.png[/img]
[url=https://extraimage.net/image/sKhS][img]https://extraimage.net/images/2018/07/18/87d6e22d851d1f16f50242b54ba36c55.md.png[/img][/url]
[url=https://extraimage.net/image/sKhO][img]https://extraimage.net/images/2018/07/18/d1df10d6c2fa2684f17b1d17a21ecaa5.md.png[/img][/url]
[url=https://extraimage.net/image/sKhy][img]https://extraimage.net/images/2018/07/18/9ff350ab688cb90e38768915c93967f7.md.png[/img][/url]
[url=https://extraimage.net/image/sKhq][img]https://extraimage.net/images/2018/07/18/001d4028bbfe1683bd91b34e3b05bcf7.md.png[/img][/url]
[url=https://extraimage.net/image/sKhL][img]https://extraimage.net/images/2018/07/18/92154d2c9b928f0cf41bba98d30d2caf.md.png[/img][/url]
[url=https://extraimage.net/image/sKhQ][img]https://extraimage.net/images/2018/07/18/4fa792bb0d417d0012a6fc8ec6b66e1c.md.png[/img][/url]
[url=https://extraimage.net/image/sKhl][img]https://extraimage.net/images/2018/07/18/2b2cd3e58e2cc1f284b039b23eedbd10.md.png[/img][/url]
[url=https://extraimage.net/image/sKhm][img]https://extraimage.net/images/2018/07/18/ba9678391a12d23496fa99ca7cf2f865.md.png[/img][/url]
[url=https://extraimage.net/image/sKhI][img]https://extraimage.net/images/2018/07/18/6bb6c138a1e0a04106512c553ad2ab1b.md.png[/img][/url]
[url=https://extraimage.net/image/sKhh][img]https://extraimage.net/images/2018/07/18/3988f80b79372fac6ad2522b58ca4875.md.png[/img][/url]
[url=https://extraimage.net/image/sKhd][img]https://extraimage.net/images/2018/07/18/a730a38f518f687654d0d503b6221f37.md.png[/img][/url]
[url=https://extraimage.net/image/sKhb][img]https://extraimage.net/images/2018/07/18/2534ffe2b33832685e0cd8f9ef7df1e0.md.png[/img][/url]
[url=https://extraimage.net/image/sKh3][img]https://extraimage.net/images/2018/07/18/76f36e2f3cd3d8939a344a1559062d45.md.png[/img][/url]
[url=https://extraimage.net/image/sKh9][img]https://extraimage.net/images/2018/07/18/7250566a43e3a0552aca491818f95a62.md.png[/img][/url]

[img]https://www.jiopic.com/images/2017/12/21/57769.jpg[/img]
[img]https://www.jiopic.com/images/2017/12/21/GpCa3NG.png[/img]

[img]https://www.jiopic.com/images/2017/12/21/line.gif[/img]
[img]https://www.jiopic.com/images/2017/12/21/64147.gif[/img]
[img]https://www.jiopic.com/images/2017/12/21/line.gif[/img]
[img]https://www.jiopic.com/images/2017/12/21/cooltext189925836930544.png[/img]
[img]https://www.jiopic.com/images/2017/12/21/Tara.gif[/img]
[img]https://www.jiopic.com/images/2017/12/21/thanks.png[/img]

[url=https://www.facebook.com/SkTaRaofficial/][img]https://www.jiopic.com/images/2017/05/04/FindusonFacebookLogo.jpg[/img][/url]

[/center]
]]>
Hustler Magazine USA - July 1974 http://glodls.to/torrent.php?id=3532886 http://glodls.to/torrent.php?id=3532886 Wed, 18 Jul 2018 16:41:12 +0100 Books
[b]English | 104 pages | PDF | 24.1 MB[/b]

[b][url=https://hdwallpaperup.in/3901.html]PREVIEW 1[/url][/b]

[b][url=https://hdwallpaperup.in/3902.html]PREVIEW 2[/url][/b]

[b][url=https://hdwallpaperup.in/3903.html]PREVIEW 3[/url][/b]

[b][url=https://hdwallpaperup.in/3904.html]PREVIEW 4[/url][/b]

[img]https://i.pinimg.com/170x/9a/6d/9d/9a6d9dc5e862aeaa5535a8eab5e4fb7a--hustler-magazine-pdf-magazines.jpg[/img][/size] ]]>
[ArenaBG com]-Elles s’offrent des vacances avec leur cul (2014) WEBRip http://glodls.to/torrent.php?id=3532885 http://glodls.to/torrent.php?id=3532885 Wed, 18 Jul 2018 16:40:12 +0100 Adult XXX POVBitch.18.07.18.Adria.Rossi.Nothing.Really.Special.XXX.1080p.MP4-KTR[N1C] http://glodls.to/torrent.php?id=3532878 http://glodls.to/torrent.php?id=3532878 Wed, 18 Jul 2018 16:21:19 +0100 Adult XXX POVBitch.18.07.18.Adria.Rossi.Nothing.Really.Special.XXX.1080p.MP4-KTR


[Format]: MPEG-4
[Duration]: 22mn 47s
[Resolution]: 1 920 x 1 080 pixels
[Display aspect ratio]: 16:9
[Frame rate mode]: Constant
[Frame rate]: 25.000 fps


[color=green][b]#N1C -> To avoid fakes, ALWAYS check that the torrent was added by NO1CARES[/b][/color]






[b]Screens...[/b]
[url]http://HotImage.uk/img-5b4f68aee9505.html[/url]
[url]http://HotImage.uk/img-5b4f68af085fd.html[/url]
[url]http://HotImage.uk/img-5b4f68af165ea.html[/url]
[url]http://HotImage.uk/img-5b4f68af22563.html[/url] ]]>
FakeTaxi 18 07 18 Luna Toxxxic 480p MP4-XxX http://glodls.to/torrent.php?id=3532877 http://glodls.to/torrent.php?id=3532877 Wed, 18 Jul 2018 16:20:18 +0100 Adult XXX
[b]Screens:[/b]

[url]https://22pixx.xyz/ia-i/5b4f68c5a4aca.jpeg.html[/url]

[url]https://22pixx.xyz/ia-i/5b4f68c59950e.jpeg.html[/url]

[url]https://22pixx.xyz/ia-i/5b4f68c58dd4c.jpeg.html[/url]

[url]https://22pixx.xyz/ia-i/5b4f68c4c940d.jpeg.html[/url]

File Size : 244 MiB
File Duration : 29mn 34s
Video Metainfo : H264, yuv420p, 854x480p, 1024 Kbps
Audio Metainfo : AAC , 2 ch, Stereo , 128 Kbps ]]>
CrazyAsianGFs 18 07 18 Saya Song Dicks Before Books 480p MP4-XxX http://glodls.to/torrent.php?id=3532876 http://glodls.to/torrent.php?id=3532876 Wed, 18 Jul 2018 16:19:45 +0100 Adult XXX
[b]Screens:[/b]

[url]https://22pixx.xyz/ia-i/5b4f68a50cff1.jpeg.html[/url]

[url]https://22pixx.xyz/ia-i/5b4f68a501d7e.jpeg.html[/url]

[url]https://22pixx.xyz/ia-i/5b4f68a4e9c85.jpeg.html[/url]

[url]https://22pixx.xyz/ia-i/5b4f68a452759.jpeg.html[/url]

File Size : 252 MiB
File Duration : 30mn 26s
Video Metainfo : H264, yuv420p, 854x480p, 1024 Kbps
Audio Metainfo : AAC , 2 ch, Stereo , 128 Kbps ]]>
MikesApartment 18 07 18 Nikky Dream Sweating The Rent 480p MP4-XxX http://glodls.to/torrent.php?id=3532875 http://glodls.to/torrent.php?id=3532875 Wed, 18 Jul 2018 16:19:29 +0100 Adult XXX
[b]Screens:[/b]

[url]https://22pixx.xyz/ia-i/5b4f68949f8af.jpeg.html[/url]

[url]https://22pixx.xyz/ia-i/5b4f68949475a.jpeg.html[/url]

[url]https://22pixx.xyz/ia-i/5b4f689489522.jpeg.html[/url]

[url]https://22pixx.xyz/ia-i/5b4f68931e4c6.jpeg.html[/url]

File Size : 304 MiB
File Duration : 36mn 52s
Video Metainfo : H264, yuv420p, 854x480p, 1024 Kbps
Audio Metainfo : AAC , 2 ch, Stereo , 128 Kbps ]]>
BigNaturals 18 07 18 Alex Chance Tennis Titties 480p MP4-XxX http://glodls.to/torrent.php?id=3532874 http://glodls.to/torrent.php?id=3532874 Wed, 18 Jul 2018 16:18:53 +0100 Adult XXX
[b]Screens:[/b]

[url]https://22pixx.xyz/ia-i/5b4f68705292f.jpeg.html[/url]

[url]https://22pixx.xyz/ia-i/5b4f6870473b8.jpeg.html[/url]

[url]https://22pixx.xyz/ia-i/5b4f68703bbe2.jpeg.html[/url]

[url]https://22pixx.xyz/ia-i/5b4f686f72bd4.jpeg.html[/url]

File Size : 312 MiB
File Duration : 37mn 44s
Video Metainfo : H264, yuv420p, 854x480p, 1024 Kbps
Audio Metainfo : AAC , 2 ch, Stereo , 128 Kbps ]]>
Russian Slut Is Ready For Anything [ MP4] http://glodls.to/torrent.php?id=3532873 http://glodls.to/torrent.php?id=3532873 Wed, 18 Jul 2018 16:18:01 +0100 Adult XXX
Screen:

[url=http://blobopics.biz/share-0E7E_5B4F6214.html][img]http://blobopics.biz/thumb-0E7E_5B4F6214.jpg[/img][/url]

or:

[url=http://blobopics.biz/share-634E_5B4F6214.html][img]http://blobopics.biz/thumb-634E_5B4F6214.jpg[/img][/url]

Screenshot:

[url=http://blobopics.biz/share-745F_5B4F6214.html][img]http://blobopics.biz/thumb-745F_5B4F6214.jpg[/img][/url]

File Size: 258 MB | Resolution: 1280x720 | Duration: 00:31:43 | Format: mp4 ]]>
DOEPROJECTS – PAYING WITH SEX - Victoria Pure [720p] mp4 http://glodls.to/torrent.php?id=3532871 http://glodls.to/torrent.php?id=3532871 Wed, 18 Jul 2018 16:14:12 +0100 Adult XXX
491.29 MB

Screens

[url]https://img.img-central.com/image/eSMLu[/url]
[url]https://img.img-central.com/image/eSClw[/url]
[url]https://img.img-central.com/image/eSeF2[/url]
[url]https://img.img-central.com/image/eSyXG[/url]

[img]https://s22.pixxxels.cc/vvah6ex35/DOEPROJECTS_PAYING_1.jpg[/img] ]]>
I, Tonya - Tonya (2017) 720p H264 italian english Ac3-5 1 sub ita Nuita eng-MIRCrew http://glodls.to/torrent.php?id=3532870 http://glodls.to/torrent.php?id=3532870 Wed, 18 Jul 2018 16:12:37 +0100 Movies
[color=red][img]https://extraimage.net/images/2018/06/28/629d876c7be492a522e9b54e228535f9.jpg[/img]
NO FOUND ONLY ORIGINAL RELEASE



My release is always in double track audio italian and Original audio
for select it use VLC or dvd player home
not use wmp

Tonya - I, Tonya (2017)

Quality MIRCrew on HD 720p da 2,3 gb

[img]https://boltimg.com/images/GZ0rZ.png[/img]


[URL=https://www.imdb.com/title/tt5580036/][IMG]https://www.userlogos.org/files/logos/Sucka/imdb_new.png[/IMG][/URL]

Scheda:

Titolo originale I, Tonya
Lingua originale inglese
Paese di produzione Stati Uniti d'America
Anno 2017
Durata 121 min
Rapporto 2.35 : 1
Genere drammatico, biografico, sportivo, commedia
Regia Craig Gillespie
Sceneggiatura Steven Rogers
Produttore Bryan Unkeless,

Cast:

Margot Robbie: Tonya Harding
Sebastian Stan: Jeff Gillooly
Allison Janney: LaVona Harding
Julianne Nicholson: Diane Rawlinson
Paul Walter Hauser: Shawn Eckhardt
Bobby Cannavale: Martin Maddox
Caitlin Carver: Nancy Kerrigan
Bojana Novakovic: Dody Teachman
Mckenna Grace: Tonya Harding bambina

Trama:

Nata a Portland, nell'Oregon, a soli tre anni Tonya Harding viene instradata da sua madre LaVona a una carriera nel pattinaggio artistico: LaVona è una donna truce e violenta, che non le dimostra il minimo affetto né apprezzamento per il suo notevole talento. Nel corso di un'infanzia e un'adolescenza difficili, Tonya diventa un'eccellente pattinatrice, ma essendo priva di grazia e gareggiando con discutibili costumi fatti in casa non riesce a sfondare e poi.................

Storyline:

From the proverbial wrong side of the tracks in Portland, Oregon, former competitive figure skater Tonya Harding was never fully accepted in the figure skating community for not inherently being the image of grace, breeding and privilege that the community wanted to portray, despite she being naturally gifted in the sport athletically.

[img]https://boltimg.com/images/GZtzM.png[/img]
[img]https://boltimg.com/images/GZ5gl.png[/img]

[url=https://boltimg.com/image/GZOGe][img]https://boltimg.com/images/GZOGe.th.png[/img][/url] [url=https://boltimg.com/image/GZDpP][img]https://boltimg.com/images/GZDpP.th.png[/img][/url]

Dati file:

[spoiler]
General
Unique ID : 192770861471830653776801706497260701763 (0x910651447E93B8E5A661F5882298C843)
Complete name : C:\Users\robby\Desktop\Tonya (2017).720p.h264.ita.eng.sub.ita.NUita.eng-MIRCrew\Tonya (2017).720p.h264.ita.eng.sub.ita.NUita-MIRCrew.mkv
Format : Matroska
Format version : Version 2
File size : 2.33 GiB
Duration : 2h 0mn
Overall bit rate : 2 770 Kbps
Movie name : MIRCrew
Encoded date : UTC 2018-07-15 09:26:30
Writing application : mkvmerge v5.4.0 ('Piper') built on Mar 10 2012 13:34:39
Writing library : Lavf54.63.100

Video
ID : 1
Format : AVC
Format/Info : Advanced Video Codec
Format profile : Main@L4.1
Format settings, CABAC : Yes
Format settings, ReFrames : 2 frames
Codec ID : V_MPEG4/ISO/AVC
Duration : 2h 0mn
Bit rate : 1 900 Kbps
Width : 1 264 pixels
Height : 528 pixels
Display aspect ratio : 2.40:1
Frame rate mode : Variable
Frame rate : 24.000 fps
Color space : YUV
Chroma subsampling : 4:2:0
Bit depth : 8 bits
Scan type : Progressive
Bits/(Pixel*Frame) : 0.119
Stream size : 1.53 GiB (66%)
Writing library : x264 core 130 r2273
Encoding settings : cabac=1 / ref=2 / deblock=1:0:0 / analyse=0x1:0x131 / me=hex / subme=7 / psy=1 / psy_rd=1.00:0.00 / mixed_ref=0 / me_range=16 / chroma_me=1 / trellis=1 / 8x8dct=0 / cqm=0 / deadzone=21,11 / fast_pskip=1 / chroma_qp_offset=-2 / threads=3 / lookahead_threads=1 / sliced_threads=0 / nr=0 / decimate=1 / interlaced=0 / bluray_compat=0 / constrained_intra=0 / bframes=3 / b_pyramid=0 / b_adapt=1 / b_bias=0 / direct=3 / weightb=1 / open_gop=0 / weightp=2 / keyint=240 / keyint_min=24 / scenecut=40 / intra_refresh=0 / rc_lookahead=40 / rc=abr / mbtree=1 / bitrate=1900 / ratetol=1.0 / qcomp=0.60 / qpmin=10 / qpmax=69 / qpstep=4 / vbv_maxrate=24000 / vbv_bufsize=24000 / nal_hrd=none / ip_ratio=1.40 / aq=1:1.00
Language : Italian
Default : Yes
Forced : No
DURATION : 02:00:13.167000000
NUMBER_OF_FRAMES : 173116
NUMBER_OF_BYTES : 8568956921
_STATISTICS_WRITING_APP : mkvmerge v9.7.1 ('Pandemonium') 64bit
_STATISTICS_WRITING_DATE_UTC : 2018-07-07 12:39:33
_STATISTICS_TAGS : BPS DURATION NUMBER_OF_FRAMES NUMBER_OF_BYTES

Audio #1
ID : 2
Format : AC-3
Format/Info : Audio Coding 3
Mode extension : CM (complete main)
Codec ID : A_AC3
Duration : 2h 0mn
Bit rate mode : Constant
Bit rate : 448 Kbps
Channel(s) : 6 channels
Channel positions : Front: L C R, Side: L R, LFE
Sampling rate : 48.0 KHz
Bit depth : 16 bits
Compression mode : Lossy
Delay relative to video : -5ms
Stream size : 385 MiB (16%)
Title : Ita Ac3 5.1
Language : Italian
Default : No
Forced : No
DURATION : 02:00:13.216000000
NUMBER_OF_FRAMES : 225413
NUMBER_OF_BYTES : 577057280
_STATISTICS_WRITING_APP : mkvmerge v9.7.1 ('Pandemonium') 64bit
_STATISTICS_WRITING_DATE_UTC : 2018-07-07 12:39:33
_STATISTICS_TAGS : BPS DURATION NUMBER_OF_FRAMES NUMBER_OF_BYTES

Audio #2
ID : 3
Format : AC-3
Format/Info : Audio Coding 3
Mode extension : CM (complete main)
Codec ID : A_AC3
Duration : 2h 0mn
Bit rate mode : Constant
Bit rate : 448 Kbps
Channel(s) : 6 channels
Channel positions : Front: L C R, Side: L R, LFE
Sampling rate : 48.0 KHz
Bit depth : 16 bits
Compression mode : Lossy
Delay relative to video : -5ms
Stream size : 385 MiB (16%)
Title : Eng Ac3 5.1
Language : English
Default : No
Forced : No
DURATION : 02:00:13.280000000
NUMBER_OF_FRAMES : 676245
NUMBER_OF_BYTES : 1360605060
_STATISTICS_WRITING_APP : mkvmerge v9.7.1 ('Pandemonium') 64bit
_STATISTICS_WRITING_DATE_UTC : 2018-07-07 12:39:33
_STATISTICS_TAGS : BPS DURATION NUMBER_OF_FRAMES NUMBER_OF_BYTES

Menu
00:00:00.000 : :(01)00:00:00:000
00:10:04.250 : :(02)00:10:04:250
00:20:14.750 : :(03)00:20:14:750
00:29:56.708 : :(04)00:29:56:708
00:40:57.583 : :(05)00:40:57:583
00:50:08.375 : :(06)00:50:08:375
00:59:38.625 : :(07)00:59:38:625
01:11:53.500 : :(08)01:11:53:500
01:20:36.666 : :(09)01:20:36:666
01:29:36.708 : :(10)01:29:36:708
01:39:52.875 : :(11)01:39:52:875
01:49:30.458 : :(12)01:49:30:458
02:00:12.750 : :(13)02:00:12:750



[/spoiler]

[/color]

]]>