Login
Username:
Password:
Remember Me:
[Signup]
[Recover Account]
Friends
BTScene
Friendly site

Free Courses Online
Friendly site

Anime RG
Friendly site

KaranPC
Friendly site

P2PDL.com
Friendly site

Free Tutorials & Courses
Friendly site
Torrent Details For "Pete s Dragon 2016 Hevc x265 1080p BluRay [Hindi +English+Commentary+5 1 Surround+Mul..."

Pete s Dragon 2016 Hevc x265 1080p BluRay [Hindi +English+Commentary+5 1 Surround+Mul...

To download this torrent, you need a BitTorrent client: Vuze or BTGuard
Download this torrent
Download using Magnet Link





Health:
Seeds: 0
Leechers: 0
Completed:
Last Checked: 13-01-2018 09:00:12

Uploader Reputation points : 4638
External: Torrent




Write a Review for the Uploader:   5   Say Thanks with one good review:


Details
Name:Pete s Dragon 2016 Hevc x265 1080p BluRay [Hindi +English+Commentary+5 1 Surround+Mul...
Description:


http://www.imdb.com/title/tt2788732/



Video
ID                                       : 1
Format                                   : AVC
Format/Info                              : Advanced Video Codec
Format profile                           : [email protected]
Format settings, CABAC                   : Yes
Format settings, ReFrames                : 4 frames
Codec ID                                 : avc1
Codec ID/Info                            : Advanced Video Coding
Duration                                 : 2 h 0 min
Bit rate                                 : 1 200 kb/s
Width                                    : 720 pixels
Height                                   : 304 pixels
Display aspect ratio                     : 16:9
Frame rate mode                          : Constant
Frame rate                               : 24.000 FPS
Color space                              : YUV
Chroma subsampling                       : 4:2:0
Scan type                                : Progressive
Bits/(Pixel*Frame)                       : 0.068
Stream size                              : 1.26 GiB (87%)
Audio
ID                                       : 2
Format                                   : AAC
Format/Info                              : Advanced Audio Codec
Format profile                           : LC
Codec ID                                 : 40
Duration                                 : 2 h 0 min
Bit rate mode                            : Constant
Channel(s)                               : 2 channels
Channel(s)_Original                      : 6 channels
Channel positions                        : Front: L C R, Side: L R, LFE
Compression mode                         : Lossy
Stream size                              : 193 MiB (13%)
Language                                 : English
Default                                  : Yes





YouTube Video:
Category:Movies
Language:Hindi  Hindi
Total Size:1.27 GB
Info Hash:4D60109F2EE4ECA4917F15745322CB33EF812C6A
Added By:stopertop Verified Uploader
Date Added:13-01-2018 08:57:41
Torrent Status:Torrent Verified


Ratings:Not Yet Rated (Log in to rate it)

  


Tracker:
udp://tracker.openbittorrent.com:80/announce

This Torrent also has backup trackers
URLSeedersLeechersCompleted
udp://tracker.openbittorrent.com:80/announce000
udp://tracker.opentrackr.org:1337/announce000
udp://glotorrents.pw:6969/announce000
udp://tracker.pubt.net:2710/announce000
udp://tracker.openbittorrent.com:80/announce000
udp://open.demonii.com:1337/announce000


File List: 



Warning! Do not Download Torrents Without a VPN!
Your IP Address is .   Location is
Your Internet Provider and Government can track your torrent Activity! Hide your IP ADDRESS with a VPN!
We strongly recommend using SpyOFF VPN to anonymize your Torrenting.It's FREE!
START YOUR FREE TRIAL NOW!


Comments
No comments still posted