Login
Username:
Password:
Remember Me:
[Signup]
[Recover Account]
Friends
BTScene
Friendly site

Free Courses Online
Friendly site

Anime RG
Friendly site

KaranPC
Friendly site

P2PDL.com
Friendly site

Free Tutorials & Courses
Friendly site
Torrent Details For "Acts of Violence 2017 1080p WEBRip 6CH AAC x264 - EiE"

Acts of Violence 2017 1080p WEBRip 6CH AAC x264 - EiE

To download this torrent, you need a BitTorrent client: Vuze or BTGuard
Download this torrent
Download using Magnet Link





Health:
Seeds: 13
Leechers: 7
Completed:
Last Checked: 13-01-2018 11:45:11

Uploader Reputation points : 42
External: Torrent




Write a Review for the Uploader:   0   Say Thanks with one good review:


Details
Name:Acts of Violence 2017 1080p WEBRip 6CH AAC x264 - EiE
Description:





Click on the link to see Screenshot:

http://lensdump.com/i/Y4vzP

http://lensdump.com/i/Y4nCZ

http://lensdump.com/i/Y4Lwm

http://lensdump.com/i/Y4Y1i




Code:

Video
ID                                       : 1
Format                                   : AVC
Format/Info                              : Advanced Video Codec
Format settings                          : CABAC / 4 Ref Frames
Format settings, CABAC                   : Yes
Format settings, RefFrames               : 4 frames
Codec ID                                 : avc1
Codec ID/Info                            : Advanced Video Coding
Duration                                 : 1 h 26 min
Bit rate                                 : 2 233 kb/s
Maximum bit rate                         : 9 898 kb/s
Width                                    : 1 904 pixels
Height                                   : 792 pixels
Display aspect ratio                     : 2.40:1
Frame rate mode                          : Constant
Frame rate                               : 23.976 FPS
Color space                              : YUV
Chroma subsampling                       : 4:2:0
Bit depth                                : 8 bits
Scan type                                : Progressive
Bits/(Pixel*Frame)                       : 0.062
Stream size                              : 1.35 GiB (90%)

Audio
ID                                       : 2
Format                                   : AAC
Format/Info                              : Advanced Audio Codec
Format profile                           : LC
Duration                                 : 1 h 26 min
Bit rate mode                            : Variable
Bit rate                                 : 238 kb/s
Maximum bit rate                         : 304 kb/s
Channel(s)                               : 6 channels
Channel positions                        : Front: L C R, Side: L R, LFE
Sampling rate                            : 48.0 kHz
Frame rate                               : 46.875 FPS
Compression mode                         : Lossy
Stream size                              : 148 MiB (10%)
Language                                 : English

YouTube Video:
Category:Movies
Language:English  English
Total Size:1.50 GB
Info Hash:6224B2C27EBBCB82F1DC60BD4A385AD8FCAD5631
Added By:samcode4u
Date Added:13-01-2018 11:42:42
Torrent Status:Unverified Torrent


Ratings:Not Yet Rated (Log in to rate it)

  


Tracker:
udp://tracker.coppersurfer.tk:80/announce

This Torrent also has backup trackers
URLSeedersLeechersCompleted
udp://tracker.coppersurfer.tk:80/announce110
udp://9.rarbg.me:2770/announce110
udp://9.rarbg.to:2720/announce110
udp://eddie4.nl:6969/announce100
udp://p4p.arenabg.com:1337/announce100
udp://shadowshq.yi.org:6969/announce100
udp://thetracker.org:80/announce110
udp://tracker.grepler.com:6969/announce000
udp://tracker.internetwarriors.net:1337/announce100
udp://tracker.opentrackr.org:1337/announce100
udp://tracker.pirateparty.gr:6969/announce110
udp://tracker.torrent.eu.org:451/announce110
udp://tracker.vanitycore.co:6969/announce110
udp://tracker.zer0day.to:1337/announce100


File List: 



Warning! Do not Download Torrents Without a VPN!
Your IP Address is .   Location is
Your Internet Provider and Government can track your torrent Activity! Hide your IP ADDRESS with a VPN!
We strongly recommend using SpyOFF VPN to anonymize your Torrenting.It's FREE!
START YOUR FREE TRIAL NOW!


Comments
No comments still posted